<?xml version="1.0" standalone="no"?>
<!DOCTYPE svg PUBLIC "-//W3C//DTD SVG 1.1//EN" "http://www.w3.org/Graphics/SVG/1.1/DTD/svg11.dtd">
<svg xmlns="http://www.w3.org/2000/svg">
<metadata>Generated by Fontastic.me</metadata>
<defs>
<font id="untitled-font-7" horiz-adv-x="512">
<font-face font-family="untitled-font-7" units-per-em="512" ascent="480" descent="-32"/>
<missing-glyph horiz-adv-x="512" />

<glyph glyph-name="ewd-arrows-icon-font-01" unicode="&#97;" d="M448 35l-1 442-383-221z"/>
<glyph glyph-name="ewd-arrows-icon-font-02" unicode="&#98;" d="M64 35l1 442 383-221z"/>
<glyph glyph-name="ewd-arrows-icon-font-03" unicode="&#65;" d="M453 35c0 96 0 192-1 288 0 51 0 103 0 154 0 4-4 6-7 5-83-49-167-97-250-145-44-26-89-51-133-77-3-2-3-7 0-9 83-48 166-96 250-144 44-25 89-51 133-77 6-3 11 6 5 9-83 48-166 96-250 144-44 26-89 51-133 77 0-3 0-6 0-9 83 48 166 97 249 145 45 25 89 51 134 77-3 1-5 3-8 4 0-96 0-192 1-288 0-51 0-103 0-154 0-7 10-7 10 0z"/>
<glyph glyph-name="ewd-arrows-icon-font-04" unicode="&#66;" d="M69 35c0 96 0 192 1 288 0 51 0 103 0 154-3-1-5-3-8-4 83-48 167-96 250-144 44-26 89-52 133-78 0 3 0 6 0 9-83-48-166-96-250-144-44-26-89-51-133-77-6-3-1-12 5-9 83 48 166 96 250 144 44 26 89 52 133 77 3 2 3 7 0 9-83 48-166 96-249 144-45 26-89 52-134 78-3 1-7-1-7-5 0-96 0-192-1-288 0-51 0-103 0-154 0-7 10-7 10 0z"/>
<glyph glyph-name="ewd-arrows-icon-font-07" unicode="&#99;" d="M449 62c0 99 0 198 0 297 0 30 0 61 0 91 0 19-21 31-38 22-85-50-171-99-257-149-26-15-53-30-79-46-16-9-16-34 0-43 86-49 172-99 258-148 26-16 52-31 79-46 28-16 53 27 25 43-86 50-172 99-258 149-26 15-52 30-79 45 0-14 0-29 0-43 86 50 172 99 258 149 26 15 52 31 79 46-13 7-25 14-38 21 0-99 0-198 0-297 0-30 0-61 0-91 0-33 50-33 50 0z"/>
<glyph glyph-name="ewd-arrows-icon-font-08" unicode="&#100;" d="M113 62c0 99 0 198 0 297 0 30 0 61 0 91-13-7-25-14-38-21 86-50 172-99 258-149 26-15 52-31 79-46 0 14 0 29 0 43-86-49-172-99-258-148-26-15-53-31-79-46-28-16-3-59 25-43 86 49 172 99 258 148 26 16 53 31 79 46 16 9 16 34 0 43-86 50-172 100-257 149-27 15-53 31-79 46-17 9-38-3-38-22 0-99 0-198 0-297 0-30 0-61 0-91 0-33 50-33 50 0z"/>
<glyph glyph-name="ewd-arrows-icon-font-09" unicode="&#101;" d="M397 85l-141 172 141 172-282-172 0-2 282-172"/>
<glyph glyph-name="ewd-arrows-icon-font-10" unicode="&#102;" d="M121 85l137 175-145 169 286-166 0-1-278-179"/>
<glyph glyph-name="ewd-arrows-icon-font-11" unicode="&#69;" d="M401 88c-47 58-94 115-141 172 0-2 0-4 0-7 47 58 94 115 141 172 3 4-1 11-6 8-85-52-170-103-255-155-7-4-14-9-21-13-2-1-7-3-8-6-6-9 18-18 23-21 50-31 100-61 150-92 37-22 74-45 111-67 5-3 10 5 5 9-85 51-170 103-255 155-9 5-18 11-28 17 1-2 2-3 3-5 0 1 0 1 0 2-1-2-2-3-3-5 85 52 170 104 255 156 9 5 18 11 28 16-2 3-4 6-6 8-47-57-94-114-142-172-1-2-1-5 0-7 48-57 95-115 142-172 4-5 11 2 7 7z"/>
<glyph glyph-name="ewd-arrows-icon-font-12" unicode="&#70;" d="M124 81c46 59 92 117 137 175 2 3 2 5 0 7-48 57-96 113-144 169-3-2-5-5-7-8 86-49 172-99 258-149 10-5 19-11 28-16 0 1-1 3-2 4 0 0 0-1 0-1 1 1 2 3 3 4-84-54-168-107-252-161-9-6-18-12-27-17-5-4 0-12 5-9 84 54 168 107 251 161 7 4 14 9 21 13 2 2 7 3 8 6 6 9-18 18-23 21-51 29-102 59-152 88-38 22-75 43-113 65-5 3-9-4-6-8 49-56 97-112 145-169 0 3 0 5 0 7-45-58-91-116-137-175-4-5 3-12 7-7z"/>
<glyph glyph-name="ewd-arrows-icon-font-13" unicode="&#103;" d="M256 454l-196-198 196-197 196 0 0-1-196 198 196 197-196 0"/>
<glyph glyph-name="ewd-arrows-icon-font-14" unicode="&#104;" d="M256 454l196-198-196-197-196 0 0-1 196 198-196 197 196 0"/>
<glyph glyph-name="ewd-arrows-icon-font-15" unicode="&#71;" d="M252 457c-65-65-130-131-195-196 0 0-1-1-1-1-2-2-2-5 0-7 65-65 130-131 195-196 5-5 17-3 23-3 23 0 46 0 68 0 37 0 74 0 110 0-1 2-3 4-5 5 0 0 0 0 0-1 3 2 6 3 9 4-65 65-130 131-195 196-1 0-1 1-1 1 0-2 0-5 0-7 65 65 130 131 195 196 0 0 1 1 1 1 3 3 1 9-4 9-65 0-131 0-196 0-6 0-6-10 0-10 65 0 131 0 196 0-1 3-2 5-3 8-65-65-130-130-195-196-1 0-1-1-2-1-1-2-1-5 0-7 66-65 131-131 196-196 0 0 0-1 1-1 3-3 8-1 8 3 0 1 0 1 0 1 0 3-2 5-5 5-49 0-98 0-147 0-12 0-24 0-36 0-3 0-7 0-10 0-4 0-2 1 0-1-10 10-20 21-31 31-55 56-110 111-165 166 0-2 0-5 0-7 65 65 130 131 195 196 1 0 1 1 2 1 4 5-3 12-8 7z"/>
<glyph glyph-name="ewd-arrows-icon-font-16" unicode="&#72;" d="M252 450c66-65 131-131 196-196 0 0 0-1 1-1 0 2 0 5 0 7-65-66-130-131-195-196-3-2 5 0-1 0-6 0-13 0-19 0-23 0-46 0-68 0-36 0-71 0-106 0-3 0-5-2-5-5 0 0 0 0 0-1 0-4 5-6 8-3 65 65 130 131 195 196 1 0 1 1 2 1 1 2 1 5 0 7-66 65-131 131-196 196 0 1 0 1-1 1-1-3-2-5-3-8 65 0 131 0 196 0 6 0 6 10 0 10-65 0-131 0-196 0-5 0-7-6-4-9 65-65 130-131 195-196 1 0 1-1 1-1 0 2 0 5 0 7-65-65-130-131-195-196 0 0-1-1-1-1 3-1 6-2 9-4 0 1 0 1 0 1-2-1-4-3-5-5 49 0 98 0 147 0 12 0 24 0 36 0 4 0 12-1 16 1 3 2 5 5 8 8 6 7 13 13 20 20 56 57 113 113 169 170 2 2 2 5 0 7-65 65-130 131-195 196-1 0-1 1-1 1-5 5-12-2-8-7z"/>
<glyph glyph-name="ewd-arrows-icon-font-17" unicode="&#105;" d="M183 222l277 0 0 68-280 0 138 137-94 0-172-171 0 0 172-171 94 0-138 137z"/>
<glyph glyph-name="ewd-arrows-icon-font-18" unicode="&#106;" d="M329 222l-277 0 0 68 280 0-138 137 94 0 172-171 0 0-172-171-94 0 138 137z"/>
<glyph glyph-name="ewd-arrows-icon-font-19" unicode="&#73;" d="M183 217c92 0 183 0 275 0 1 0 1 0 2 0 2 0 5 3 5 5 0 23 0 45 0 68 0 2-3 5-5 5-93 0-185 0-278 0 0 0-1 0-2 0 2-3 3-6 4-9 46 46 92 92 138 138 3 3 0 8-4 8-25 0-50 0-74 0-5 0-20 3-24-1-3-3-6-6-9-10-41-41-82-82-123-123-13-12-26-25-39-38-7-7 14-22 18-26 42-42 85-84 127-127 7-7 15-15 22-22 5-5 7-5 14-5 29 0 59 0 88 0 4 0 7 5 4 8-46 46-92 92-138 138-1-3-2-6-4-9 1 0 2 0 3 0 6 0 6 10 0 10-1 0-2 0-3 0-4 0-6-5-3-8 46-46 92-92 137-138 2 3 3 6 4 9-25 0-50 0-74 0-6 0-11 0-16 0-1 0-3 0-4 0-2 0 4-3 3-1-4 4-8 8-12 12-42 41-83 83-125 124-11 12-23 23-34 34 4-3-2-9 2-5 2 3 4 5 6 7 8 7 15 15 23 22 41 42 83 84 125 126 5 5 10 9 14 14 3 3-5-1 0-1 5 0 9 0 14 0 26 0 52 0 78 0-1 3-2 6-4 9-45-46-91-92-137-138-3-3-1-8 3-8 93 0 185 0 278 0 0 0 1 0 2 0-2 1-4 3-5 5 0-23 0-45 0-68 1 2 3 4 5 5-92 0-184 0-276 0 0 0-1 0-1 0-7 0-7-10 0-10z"/>
<glyph glyph-name="ewd-arrows-icon-font-20" unicode="&#74;" d="M329 227c-92 0-183 0-275 0-1 0-1 0-2 0 2-1 4-3 5-5 0 23 0 45 0 68-1-2-3-4-5-5 93 0 185 0 278 0 0 0 1 0 2 0 4 0 6 5 3 8-46 46-92 92-137 138-2-3-3-6-4-9 25 0 50 0 74 0 6 0 11 0 16 0 1 0 3 0 4 0 2 0-4 3-3 1 4-4 8-8 12-12 42-41 83-83 125-124 11-12 23-23 34-34-4 3 2 9-2 5-2-3-4-5-6-7-8-7-15-15-23-22-41-42-83-84-125-126-5-5-10-9-14-14-3-3 5 1 0 1-5 0-9 0-14 0-26 0-52 0-78 0 1-3 2-6 4-9 45 46 91 92 137 138 3 3 1 8-3 8-1 0-2 0-3 0-6 0-6-10 0-10 1 0 2 0 3 0-2 3-3 6-4 9-46-46-92-92-138-138-3-3 0-8 4-8 25 0 50 0 74 0 5 0 20-3 24 1 3 3 6 6 9 10 41 41 82 82 123 123 13 12 26 25 39 38 7 7-14 22-18 26-42 42-85 84-127 127-7 7-15 15-22 22-5 5-7 5-14 5-29 0-59 0-88 0-4 0-7-5-4-8 46-46 92-92 138-138 1 3 2 6 4 9-93 0-185 0-278 0 0 0-1 0-2 0-2 0-5-3-5-5 0-23 0-45 0-68 0-2 3-5 5-5 92 0 184 0 276 0 0 0 1 0 1 0 7 0 7 10 0 10z"/>
<glyph glyph-name="ewd-arrows-icon-font-21" unicode="&#107;" d="M411 316c-98 0-195 0-293 0-6 0-11 0-17 0-52 0-79-65-42-102 49-49 98-98 147-147 23-23 61-23 84 0 24 23 24 61 0 85-48 48-97 97-146 146 0-28 0-56 0-84 49 49 98 98 146 146 24 24 24 62 0 85-23 23-61 23-84 0-49-49-98-98-147-147-23-23-23-61 0-84 49-49 98-98 147-147 23-23 61-23 84 0 24 23 24 61 0 85-48 48-97 97-146 146-15-34-29-68-43-102 98 0 195 0 293 0 6 0 11 0 17 0 33 0 60 27 60 60 0 33-27 60-60 60z"/>
<glyph glyph-name="ewd-arrows-icon-font-22" unicode="&#108;" d="M101 196c98 0 195 0 293 0 6 0 11 0 17 0-14 34-28 68-43 102-49-49-98-98-146-146-24-24-24-62 0-85 23-23 61-23 84 0 49 49 98 98 147 147 23 23 23 61 0 84-49 49-98 98-147 147-23 23-61 23-84 0-24-23-24-61 0-85 48-48 97-97 146-146 0 28 0 56 0 84-49-49-98-98-146-146-24-24-24-62 0-85 23-23 61-23 84 0 49 49 98 98 147 147 37 37 10 102-42 102-98 0-195 0-293 0-6 0-11 0-17 0-33 0-60-27-60-60 0-33 27-60 60-60z"/>
<glyph glyph-name="ewd-arrows-icon-font-23" unicode="&#75;" d="M214 202c17-17 35-35 52-52 5-5 10-10 15-15 14-17 15-39 0-56-16-19-40-21-60-6-3 2-6 6-9 9-19 18-37 37-56 56-20 20-41 41-62 61-14 15-30 28-35 48-7 26 15 45 31 62 20 19 40 39 59 58 20 20 40 40 60 60 15 16 34 30 57 19 25-13 33-41 19-64-4-6-9-10-14-15-19-19-37-37-56-56-1-1-1-1-1-1-2-2-2-5 0-7 4-4 9-3 15-3 11 0 22 0 34 0 32 0 63 0 95 0 18 0 35 0 53 0 30 0 47-26 42-55-4-20-23-32-42-32-18 0-36 0-55 0-45 0-91 0-137 0-2 0-4-1-5-2 0-1 0-2-1-3-3-5 6-10 9-5 0 1 1 2 1 3-1-1-3-2-4-3 49 0 99 0 148 0 15 0 30 0 45 0 26 2 49 19 52 46 3 31-16 56-47 60-13 2-27 1-40 1-53 0-105 0-157 0-3 0 3-2 1 0 0-3 0-5 0-7 17 17 35 35 52 52 16 16 32 33 29 58-3 22-23 42-45 46-16 3-32-4-44-14-11-9-22-21-32-32-36-35-71-70-106-106-10-10-19-20-24-33-8-19-1-41 12-56 9-13 22-23 33-34 38-38 75-76 113-114 19-19 50-24 71-6 18 15 27 35 20 58-3 8-8 17-15 23-21 21-43 43-64 64-5 5-12-2-7-7z"/>
<glyph glyph-name="ewd-arrows-icon-font-24" unicode="&#76;" d="M291 209c-17-17-35-35-52-52-16-16-32-33-29-58 3-22 23-42 45-46 16-3 32 4 44 14 11 9 22 21 32 32 36 35 71 70 106 106 10 9 18 19 23 32 8 20 3 40-10 57-10 12-23 23-34 34-38 38-75 76-113 114-19 19-50 24-71 6-18-15-27-35-20-58 3-8 8-17 15-23 21-21 43-43 64-64 0 2 0 4 0 7-2-2 4 0 2 0-1 0-2 0-3 0-4 0-7 0-11 0-12 0-25 0-37 0-32 0-63 0-95 0-38 0-91 6-98-44-5-32 14-58 45-62 13-2 27-1 40-1 52 0 105 0 158 0 0 0 1 0 1 0-1 1-3 2-4 3 0-1 1-2 1-3 3-5 12 0 9 5-1 1-1 2-1 3-1 1-3 2-5 2-49 0-99 0-148 0-15 0-30 0-45 0-11 1-21 5-29 11-15 13-17 38-8 55 7 14 24 21 40 21 21 0 41 0 62 0 30 0 59 0 89 0 10 0 20 0 30 0 5 0 10-1 14 3 2 2 2 5 0 7-17 17-35 35-52 52-5 5-10 10-15 15-14 17-15 39 0 56 16 19 40 21 60 6 3-2 6-6 9-9 19-18 37-37 56-56 20-20 41-41 62-61 14-15 31-28 36-50 5-25-16-44-32-60-20-19-40-39-59-58-20-20-40-40-60-60-15-16-34-30-57-19-25 13-33 41-19 64 4 6 9 10 14 15 19 19 37 37 56 56 1 1 1 1 1 1 5 5-2 12-7 7z"/>
<glyph glyph-name="ewd-arrows-icon-font-25" unicode="&#109;" d="M281 257l97 97c0 0 43 44-6 93-49 50-93 6-93 6l-141-141c0 0-25-22-25-56 0-27 25-54 25-54l0 0 141-142c0 0 45-45 95 4 53 53 4 95 4 95l-97 97z"/>
<glyph glyph-name="ewd-arrows-icon-font-26" unicode="&#110;" d="M231 257l-97 97c0 0-43 44 6 93 49 50 93 6 93 6l141-141c0 0 25-22 25-56 0-27-25-54-25-54l0 0-141-142c0 0-45-45-95 4-53 53-4 95-4 95l97 97z"/>
<glyph glyph-name="ewd-arrows-icon-font-27" unicode="&#77;" d="M284 253c32 32 64 65 96 97 19 19 25 49 14 73-17 40-63 66-104 45-12-7-21-17-31-27-20-21-41-42-62-63-19-19-38-38-56-57-15-15-28-31-32-53-4-22 5-43 17-61 3-3 6-9 9-11 5-3-3 3 2-1 17-17 33-33 49-49 23-22 45-44 67-66 10-9 19-20 30-28 12-9 26-15 41-16 24-1 45 14 60 31 25 27 27 64 3 92-11 12-24 23-36 35-20 20-41 40-61 61-2 1-4 3-6 5-4 5-11-2-7-7 14-16 30-29 45-44 17-17 35-35 53-52 20-20 26-45 11-71-13-23-40-43-68-39-12 2-24 8-33 16-35 32-68 67-102 101-14 13-27 26-41 40-1 1-2 1-3 1 2 0 3-2 2 0-1 1-2 1-2 2-7 9-13 19-17 29-9 22-1 47 13 65 9 11 20 20 30 31 22 22 45 44 67 67 16 16 31 32 47 48 18 18 44 24 67 13 20-10 37-30 42-51 4-15 0-30-8-42-5-9-13-16-21-24-27-27-54-55-82-83-4-5 3-12 7-7z"/>
<glyph glyph-name="ewd-arrows-icon-font-28" unicode="&#78;" d="M235 260c-33 33-65 65-97 97-6 6-11 15-13 23-9 25 3 49 21 66 23 23 60 27 84 3 36-36 73-73 109-109 11-11 22-22 33-33 14-13 21-32 22-51 0-12-6-24-12-35-2-4-4-7-7-11-1-1-2-2-3-3-2-3-1 0 2 0-4 0-9-8-12-10-8-8-16-17-25-25-22-22-45-45-68-68-13-13-26-27-40-40-6-6-14-11-22-14-24-10-48 1-66 18-23 23-31 56-9 82 7 8 14 15 22 22 17 18 34 35 52 52 9 10 20 19 29 29 4 5-3 12-7 7-13-15-30-29-45-44-17-17-35-35-52-53-16-16-25-36-22-59 4-24 23-45 43-57 17-11 37-13 56-7 15 5 26 15 37 26 20 19 39 39 59 59 20 20 41 40 61 61 4 4 8 8 12 12 1 0-5-2-1-1 1 0 1 0 2 1 1 2 3 3 4 5 6 8 11 16 15 25 14 31 4 64-19 87-14 14-28 28-42 42-33 33-65 68-100 100-25 23-60 24-88 4-34-24-48-67-23-103 9-14 23-25 34-36 21-21 42-42 62-62 2-2 4-5 7-7 4-4 11 3 7 7z"/>
<glyph glyph-name="ewd-arrows-icon-font-29" unicode="&#111;" d="M97 256c0-18-15-32-33-32-18 0-32 14-32 32 0 18 14 32 32 32 18 0 33-14 33-32z m65 65c0-18-15-33-33-33-18 0-32 15-32 33 0 18 14 32 32 32 18 0 33-14 33-32z m67 65c0-18-15-33-33-33-17 0-32 15-32 33 0 18 15 32 32 32 18 0 33-14 33-32z m-67-195c0-18-15-32-33-32-18 0-32 14-32 32 0 18 14 33 32 33 18 0 33-15 33-33z m67-65c0-18-15-32-33-32-17 0-32 14-32 32 0 18 15 33 32 33 18 0 33-15 33-33z m-2 130c0-18-15-32-33-32-18 0-32 14-32 32 0 18 14 32 32 32 18 0 33-14 33-32z m169 0c0-18-15-32-33-32-18 0-32 14-32 32 0 18 14 32 32 32 18 0 33-14 33-32z m-85 0c0-18-14-32-32-32-18 0-33 14-33 32 0 18 15 32 33 32 18 0 32-14 32-32z m169 0c0-18-14-32-32-32-18 0-33 14-33 32 0 18 15 32 33 32 18 0 32-14 32-32z"/>
<glyph glyph-name="ewd-arrows-icon-font-30" unicode="&#112;" d="M480 256c0-18-14-32-32-32-18 0-33 14-33 32 0 18 15 32 33 32 18 0 32-14 32-32z m-65 65c0-18-14-33-32-33-18 0-33 15-33 33 0 18 15 32 33 32 18 0 32-14 32-32z m-67 65c0-18-15-33-32-33-18 0-33 15-33 33 0 18 15 32 33 32 17 0 32-14 32-32z m67-195c0-18-14-32-32-32-18 0-33 14-33 32 0 18 15 33 33 33 18 0 32-15 32-33z m-67-65c0-18-15-32-32-32-18 0-33 14-33 32 0 18 15 33 33 33 17 0 32-15 32-33z m2 130c0-18-14-32-32-32-18 0-33 14-33 32 0 18 15 32 33 32 18 0 32-14 32-32z m-169 0c0-18-14-32-32-32-18 0-33 14-33 32 0 18 15 32 33 32 18 0 32-14 32-32z m85 0c0-18-15-32-33-32-18 0-32 14-32 32 0 18 14 32 32 32 18 0 33-14 33-32z m-169 0c0-18-15-32-33-32-18 0-32 14-32 32 0 18 14 32 32 32 18 0 33-14 33-32z"/>
<glyph glyph-name="ewd-arrows-icon-font-31" unicode="&#79;" d="M92 256c-2-35-54-35-55 0-1 15 13 27 27 27 16 1 27-13 28-27 0-6 10-6 10 0-1 21-17 37-38 37-21 1-36-17-37-37-1-21 18-37 37-37 21-1 37 17 38 37 0 6-10 6-10 0z m65 65c-2-35-54-35-55 0-1 15 13 27 27 27 16 1 27-13 28-27 0-7 10-7 10 0-1 21-17 37-38 37-21 1-36-17-37-37-1-21 18-37 37-38 21 0 37 18 38 38 0 6-10 6-10 0z m67 65c-1-36-54-36-55 0-1 15 13 27 27 27 16 1 27-13 28-27 0-7 10-7 10 0-1 21-17 36-38 37-20 1-36-17-37-37-1-21 18-37 37-38 21 0 37 18 38 38 0 6-10 6-10 0z m-67-195c-2-35-54-35-55 0-1 16 13 27 27 28 16 0 27-13 28-28 0-6 10-6 10 0-1 21-17 37-38 38-21 0-36-18-37-38-1-21 18-37 37-37 21-1 37 17 38 37 0 7-10 7-10 0z m67-65c-1-35-54-35-55 0-1 16 13 27 27 28 16 0 27-13 28-28 0-6 10-6 10 0-1 21-17 37-38 38-20 0-36-18-37-38-1-21 18-36 37-37 21-1 37 17 38 37 0 7-10 7-10 0z m-2 130c-2-35-54-35-55 0-1 15 13 27 27 27 16 1 27-13 28-27 0-6 10-6 10 0-1 21-17 37-38 37-21 1-37-17-37-37-1-21 17-37 37-37 21-1 37 17 38 37 0 6-10 6-10 0z m169 0c-2-35-54-35-55 0-1 15 13 27 27 27 16 1 27-13 28-27 0-6 10-6 10 0-1 21-17 37-38 37-21 1-36-17-37-37-1-21 17-37 37-37 21-1 37 17 38 37 0 6-10 6-10 0z m-85 0c-1-35-53-35-55 0 0 15 13 27 28 27 15 1 27-13 27-27 0-6 10-6 10 0-1 21-16 37-37 37-21 1-37-17-38-37-1-21 18-37 38-37 21-1 36 17 37 37 0 6-10 6-10 0z m169 0c-1-35-53-35-55 0 0 15 13 27 28 27 15 1 27-13 27-27 0-6 10-6 10 0-1 21-16 37-37 37-21 1-37-17-38-37-1-21 18-37 38-37 21-1 36 17 37 37 0 6-10 6-10 0z"/>
<glyph glyph-name="ewd-arrows-icon-font-32" unicode="&#80;" d="M410 256c1-21 17-37 38-37 21-1 36 17 37 37 1 21-18 37-37 37-21 1-37-17-38-37 0-6 10-6 10 0 2 35 54 35 55 0 1-15-13-27-27-27-16-1-27 13-28 27 0 6-10 6-10 0z m-65 65c1-21 17-37 38-38 21 0 36 18 37 38 1 21-18 37-37 37-21 1-37-17-38-37 0-7 10-7 10 0 2 35 54 35 55 0 1-16-13-27-27-28-16 0-27 13-28 28 0 6-10 6-10 0z m-67 65c1-21 17-37 38-38 20 0 36 18 37 38 1 21-18 36-37 37-21 1-37-17-38-37 0-7 10-7 10 0 1 35 54 35 55 0 1-16-13-27-27-28-16 0-27 13-28 28 0 6-10 6-10 0z m67-195c1-21 17-37 38-37 21-1 36 17 37 37 1 21-18 37-37 38-21 0-37-18-38-38 0-6 10-6 10 0 2 35 54 35 55 0 1-15-13-27-27-27-16-1-27 13-28 27 0 7-10 7-10 0z m-67-65c1-21 17-36 38-37 20-1 36 17 37 37 1 21-18 37-37 38-21 0-37-18-38-38 0-6 10-6 10 0 1 36 54 36 55 0 1-15-13-27-27-27-16-1-27 13-28 27 0 7-10 7-10 0z m2 130c1-21 17-37 38-37 21-1 37 17 37 37 1 21-17 37-37 37-21 1-37-17-38-37 0-6 10-6 10 0 2 35 54 35 55 0 1-15-13-27-27-27-16-1-27 13-28 27 0 6-10 6-10 0z m-169 0c1-21 17-37 38-37 21-1 36 17 37 37 1 21-17 37-37 37-21 1-37-17-38-37 0-6 10-6 10 0 2 35 54 35 55 0 1-15-13-27-27-27-16-1-27 13-28 27 0 6-10 6-10 0z m85 0c1-21 16-37 37-37 21-1 37 17 38 37 1 21-18 37-38 37-21 1-36-17-37-37 0-6 10-6 10 0 1 35 53 35 55 0 0-15-13-27-28-27-15-1-27 13-27 27 0 6-10 6-10 0z m-169 0c1-21 16-37 37-37 21-1 37 17 38 37 1 21-18 37-38 37-21 1-36-17-37-37 0-6 10-6 10 0 1 35 53 35 55 0 0-15-13-27-28-27-15-1-27 13-27 27 0 6-10 6-10 0z"/>
<glyph glyph-name="ewd-arrows-icon-font-33" unicode="&#113;" d="M29 294l75 0 0-76-75 0z m75 76l76 0 0-76-76 0z m76 76l76 0 0-76-76 0z m-76-228l76 0 0-76-76 0z m76-76l76 0 0-76-76 0z m0 152l76 0 0-76-76 0z m76 0l76 0 0-76-76 0z m76 0l76 0 0-76-76 0z m76 0l75 0 0-76-75 0z"/>
<glyph glyph-name="ewd-arrows-icon-font-34" unicode="&#114;" d="M408 294l75 0 0-76-75 0z m-76 76l76 0 0-76-76 0z m-76 76l76 0 0-76-76 0z m76-228l76 0 0-76-76 0z m-76-76l76 0 0-76-76 0z m0 152l76 0 0-76-76 0z m-76 0l76 0 0-76-76 0z m-76 0l76 0 0-76-76 0z m-75 0l75 0 0-76-75 0z"/>
<glyph glyph-name="ewd-arrows-icon-font-35" unicode="&#81;" d="M104 223c-25 0-50 0-75 0 1-2 3-3 5-5 0 25 0 51 0 76-2-2-4-3-5-5 25 0 50 0 75 0-1 2-3 3-5 5 0-25 0-51 0-76 0-6 10-6 10 0 0 25 0 51 0 76 0 3-2 5-5 5-25 0-50 0-75 0-3 0-5-2-5-5 0-25 0-51 0-76 0-3 2-5 5-5 25 0 50 0 75 0 7 0 7 10 0 10z m76 76c-25 0-50 0-76 0 2-2 4-3 5-5 0 25 0 50 0 76-1-2-3-4-5-5 26 0 51 0 76 0-1 1-3 3-5 5 0-26 0-51 0-76 0-7 10-7 10 0 0 25 0 50 0 76 0 2-2 5-5 5-25 0-50 0-76 0-2 0-5-3-5-5 0-26 0-51 0-76 0-3 3-5 5-5 26 0 51 0 76 0 7 0 7 10 0 10z m76 76c-25 0-51 0-76 0 2-2 4-4 5-5 0 25 0 50 0 76-1-2-3-4-5-5 25 0 51 0 76 0-2 1-3 3-5 5 0-26 0-51 0-76 0-7 10-7 10 0 0 25 0 50 0 76 0 2-2 5-5 5-25 0-51 0-76 0-3 0-5-3-5-5 0-26 0-51 0-76 0-3 2-5 5-5 25 0 51 0 76 0 6 0 6 10 0 10z m-76-228c-25 0-50 0-76 0 2-1 4-3 5-5 0 26 0 51 0 76-1-2-3-3-5-5 26 0 51 0 76 0-1 2-3 3-5 5 0-25 0-50 0-76 0-6 10-6 10 0 0 26 0 51 0 76 0 3-2 5-5 5-25 0-50 0-76 0-2 0-5-2-5-5 0-25 0-50 0-76 0-2 3-5 5-5 26 0 51 0 76 0 7 0 7 10 0 10z m76-76c-25 0-51 0-76 0 2-1 4-3 5-5 0 26 0 51 0 76-1-1-3-3-5-5 25 0 51 0 76 0-2 2-3 4-5 5 0-25 0-50 0-76 0-6 10-6 10 0 0 26 0 51 0 76 0 3-2 5-5 5-25 0-51 0-76 0-3 0-5-2-5-5 0-25 0-50 0-76 0-2 2-5 5-5 25 0 51 0 76 0 6 0 6 10 0 10z m0 152c-25 0-51 0-76 0 2-2 4-3 5-5 0 25 0 51 0 76-1-2-3-3-5-5 25 0 51 0 76 0-2 2-3 3-5 5 0-25 0-51 0-76 0-6 10-6 10 0 0 25 0 51 0 76 0 3-2 5-5 5-25 0-51 0-76 0-3 0-5-2-5-5 0-25 0-51 0-76 0-3 2-5 5-5 25 0 51 0 76 0 6 0 6 10 0 10z m76 0c-25 0-51 0-76 0 2-2 3-3 5-5 0 25 0 51 0 76-2-2-3-3-5-5 25 0 51 0 76 0-2 2-4 3-5 5 0-25 0-51 0-76 0-6 10-6 10 0 0 25 0 51 0 76 0 3-2 5-5 5-25 0-51 0-76 0-3 0-5-2-5-5 0-25 0-51 0-76 0-3 2-5 5-5 25 0 51 0 76 0 6 0 6 10 0 10z m76 0c-26 0-51 0-76 0 1-2 3-3 5-5 0 25 0 51 0 76-2-2-4-3-5-5 25 0 50 0 76 0-2 2-4 3-5 5 0-25 0-51 0-76 0-6 10-6 10 0 0 25 0 51 0 76 0 3-3 5-5 5-26 0-51 0-76 0-3 0-5-2-5-5 0-25 0-51 0-76 0-3 2-5 5-5 25 0 50 0 76 0 6 0 6 10 0 10z m75 0c-25 0-50 0-75 0 1-2 3-3 5-5 0 25 0 51 0 76-2-2-4-3-5-5 25 0 50 0 75 0-1 2-3 3-5 5 0-25 0-51 0-76 0-6 10-6 10 0 0 25 0 51 0 76 0 3-2 5-5 5-25 0-50 0-75 0-3 0-5-2-5-5 0-25 0-51 0-76 0-3 2-5 5-5 25 0 50 0 75 0 7 0 7 10 0 10z"/>
<glyph glyph-name="ewd-arrows-icon-font-36" unicode="&#82;" d="M408 213c25 0 50 0 75 0 3 0 5 2 5 5 0 25 0 51 0 76 0 3-2 5-5 5-25 0-50 0-75 0-3 0-5-2-5-5 0-25 0-51 0-76 0-6 10-6 10 0 0 25 0 51 0 76-2-2-4-3-5-5 25 0 50 0 75 0-1 2-3 3-5 5 0-25 0-51 0-76 2 2 4 3 5 5-25 0-50 0-75 0-7 0-7-10 0-10z m-76 76c25 0 50 0 76 0 2 0 5 2 5 5 0 25 0 50 0 76 0 2-3 5-5 5-26 0-51 0-76 0-3 0-5-3-5-5 0-26 0-51 0-76 0-7 10-7 10 0 0 25 0 50 0 76-2-2-4-4-5-5 25 0 50 0 76 0-2 1-4 3-5 5 0-26 0-51 0-76 1 2 3 3 5 5-26 0-51 0-76 0-7 0-7-10 0-10z m-76 76c25 0 51 0 76 0 3 0 5 2 5 5 0 25 0 50 0 76 0 2-2 5-5 5-25 0-51 0-76 0-3 0-5-3-5-5 0-26 0-51 0-76 0-7 10-7 10 0 0 25 0 50 0 76-2-2-3-4-5-5 25 0 51 0 76 0-2 1-4 3-5 5 0-26 0-51 0-76 1 1 3 3 5 5-25 0-51 0-76 0-6 0-6-10 0-10z m76-228c25 0 50 0 76 0 2 0 5 3 5 5 0 26 0 51 0 76 0 3-3 5-5 5-26 0-51 0-76 0-3 0-5-2-5-5 0-25 0-50 0-76 0-6 10-6 10 0 0 26 0 51 0 76-2-2-4-3-5-5 25 0 50 0 76 0-2 2-4 3-5 5 0-25 0-50 0-76 1 2 3 4 5 5-26 0-51 0-76 0-7 0-7-10 0-10z m-76-76c25 0 51 0 76 0 3 0 5 3 5 5 0 26 0 51 0 76 0 3-2 5-5 5-25 0-51 0-76 0-3 0-5-2-5-5 0-25 0-50 0-76 0-6 10-6 10 0 0 26 0 51 0 76-2-1-3-3-5-5 25 0 51 0 76 0-2 2-4 4-5 5 0-25 0-50 0-76 1 2 3 4 5 5-25 0-51 0-76 0-6 0-6-10 0-10z m0 152c25 0 51 0 76 0 3 0 5 2 5 5 0 25 0 51 0 76 0 3-2 5-5 5-25 0-51 0-76 0-3 0-5-2-5-5 0-25 0-51 0-76 0-6 10-6 10 0 0 25 0 51 0 76-2-2-3-3-5-5 25 0 51 0 76 0-2 2-4 3-5 5 0-25 0-51 0-76 1 2 3 3 5 5-25 0-51 0-76 0-6 0-6-10 0-10z m-76 0c25 0 51 0 76 0 3 0 5 2 5 5 0 25 0 51 0 76 0 3-2 5-5 5-25 0-51 0-76 0-3 0-5-2-5-5 0-25 0-51 0-76 0-6 10-6 10 0 0 25 0 51 0 76-1-2-3-3-5-5 25 0 51 0 76 0-2 2-3 3-5 5 0-25 0-51 0-76 2 2 3 3 5 5-25 0-51 0-76 0-6 0-6-10 0-10z m-76 0c26 0 51 0 76 0 3 0 5 2 5 5 0 25 0 51 0 76 0 3-2 5-5 5-25 0-50 0-76 0-2 0-5-2-5-5 0-25 0-51 0-76 0-6 10-6 10 0 0 25 0 51 0 76-1-2-3-3-5-5 26 0 51 0 76 0-1 2-3 3-5 5 0-25 0-51 0-76 2 2 4 3 5 5-25 0-50 0-76 0-6 0-6-10 0-10z m-75 0c25 0 50 0 75 0 3 0 5 2 5 5 0 25 0 51 0 76 0 3-2 5-5 5-25 0-50 0-75 0-3 0-5-2-5-5 0-25 0-51 0-76 0-6 10-6 10 0 0 25 0 51 0 76-2-2-4-3-5-5 25 0 50 0 75 0-1 2-3 3-5 5 0-25 0-51 0-76 2 2 4 3 5 5-25 0-50 0-75 0-7 0-7-10 0-10z"/>
</font>
</defs>
</svg>
